Chip GFX

Free Download Resources and Torrent
    New Download Links
    Speed
     kbps
     kbps
     kbps

    Camerata Bern - Festliche Barockmusik / Festive Baroque Music (1985 Novalis # 150 004-2)

    Category: musics data: 20-12-2015, 20:25
    Rating:
    (votes: 0)

    Camerata Bern - Festliche Barockmusik / Festive Baroque Music
    Works by Bach, Pachelbel, Vivaldi, Albinoni & others
    EAC+LOG+CUE | FLAC: 304 MB | Full Artwork: 48 MB | 5% Recovery Info
    Label/Cat#: Novalis # 150 004-2 | Country/Year: Switzerland 1985
    Genre: Classical | Style: Baroque

    MD5 [X] CUE [X] LOG [X] INFO TEXT [X] ARTWORK [X]

    my rip [X] not my rip [ ]



    EAC LOG
    Exact Audio Copy V1.0 beta 3 from 29. August 2011

    EAC extraction logfile from 14. September 2013, 0:55

    Camerata Bern / Festliche Barockmusik

    Used drive : PIONEER BD-RW BDR-206 Adapter: 0 ID: 2

    Read mode : Secure
    Utilize accurate stream : Yes
    Defeat audio cache : Yes
    Make use of C2 pointers : No

    Read offset correction : 667
    Overread into Lead-In and Lead-Out : No
    Fill up missing offset samples with silence : Yes
    Delete leading and trailing silent blocks : No
    Null samples used in CRC calculations : Yes
    Used interface : Native Win32 interface for Win NT & 2000

    Used output format : User Defined Encoder
    Selected bitrate : 1024 kBit/s
    Quality : High
    Add ID3 tag : Yes
    Command line compressor : C:Program FilesFLACflac.exe
    Additional command line options : -5 -T "Artist=%artist%" -T "Title=%title%" -T "Album=%albumtitle%" -T "Date=%year%" -T "Tracknumber=%tracknr%" -T "Genre=%genre%" %source% -o %dest% TOC of the extracted CD

    Track | Start | Length | Start sector | End sector
    ---------------------------------------------------------
    1 | 0:00.33 | 8:27.00 | 33 | 38057
    2 | 8:27.33 | 12:20.02 | 38058 | 93559
    3 | 20:47.35 | 6:03.73 | 93560 | 120857
    4 | 26:51.33 | 3:58.10 | 120858 | 138717
    5 | 30:49.43 | 7:37.02 | 138718 | 172994
    6 | 38:26.45 | 14:06.73 | 172995 | 236517
    7 | 52:33.43 | 7:05.65 | 236518 | 268457 Range status and errors

    Selected range

    Filename F:=== VINYL RIPS ====== EAC===X FRESH RIPCamerata Bern - Festliche Barockmusik.wav

    Peak level 90.6 %
    Extraction speed 7.3 X
    Range quality 100.0 %
    Test CRC B5762E3A
    Copy CRC B5762E3A
    Copy OK

    No errors occurred


    AccurateRip summary

    Track 1 accurately ripped (confidence 5) [9F71D655] (AR v2)
    Track 2 accurately ripped (confidence 5) [D3C177EA] (AR v2)
    Track 3 accurately ripped (confidence 5) [2C653A62] (AR v2)
    Track 4 accurately ripped (confidence 5) [9E79DCFB] (AR v2)
    Track 5 accurately ripped (confidence 5) [91882380] (AR v2)
    Track 6 accurately ripped (confidence 5) [08C44C22] (AR v2)
    Track 7 accurately ripped (confidence 5) [BFAC525A] (AR v2)

    All tracks accurately ripped

    End of status report

    ---- CUETools DB Plugin V2.1.3

    [CTDB TOCID: 5jjiSmaDuiOR_vZxWzY4YqHxPhU-] found, Submit result: discs with pregaps not supported in this protocol version
    [2cfa1ef4] (6/6) Differs in 0 samples @
    You can use CUETools to repair this rip. ==== Log checksum 42B31380F3908E8EC3B9FFDC660E8314A6F1EA764FBB6056E56B6A33E704943F ====

    Dynamic Range LOG
    foobar2000 1.1.14a / Dynamic Range Meter 1.1.1
    log date: 2013-09-16 09:15:21

    --------------------------------------------------------------------------------
    Statistics for: 04-Concerto fuer Streicher und Cembalo RV 109 (PV 67)
    Number of samples: 10501680
    Duration: 3:58
    --------------------------------------------------------------------------------

    Left Right

    Peak Value: -3.23 dB --- -2.86 dB
    Avg RMS: -20.73 dB --- -20.59 dB
    DR channel: 13.00 dB --- 13.12 dB
    --------------------------------------------------------------------------------

    Official DR Value: DR13

    Samplerate: 44100 Hz
    Channels: 2
    Bits per sample: 16
    Bitrate: 713 kbps
    Codec: FLAC
    ================================================================================ foobar2000 1.1.14a / Dynamic Range Meter 1.1.1
    log date: 2013-09-16 09:15:27

    --------------------------------------------------------------------------------
    Analyzed: Francesco Manfredini / Festliche Barockmusik (1)
    Georg Friedrich Haendel / Festliche Barockmusik (2)
    Henry Purcell / Festliche Barockmusik (3)
    --------------------------------------------------------------------------------

    DR Peak RMS Duration Track
    --------------------------------------------------------------------------------
    DR13 -0.86 dB -20.10 dB 8:27 01-Concerto grosso op. 3 Nr. 12
    DR14 -1.05 dB -18.90 dB 14:07 06-Concero grosso op. 6 Nr. 5
    DR13 -1.89 dB -18.62 dB 7:06 07-Pavane und Chaconne
    --------------------------------------------------------------------------------

    Number of tracks: 3
    Official DR value: DR14

    Samplerate: 44100 Hz
    Channels: 2
    Bits per sample: 16
    Bitrate: 713 kbps
    Codec: FLAC
    ================================================================================

    --------------------------------------------------------------------------------
    Statistics for: 03-Kanon und Gigue D-dur
    Number of samples: 16051224
    Duration: 6:04
    --------------------------------------------------------------------------------

    Left Right

    Peak Value: -2.73 dB --- -2.79 dB
    Avg RMS: -18.55 dB --- -18.03 dB
    DR channel: 12.28 dB --- 11.35 dB
    --------------------------------------------------------------------------------

    Official DR Value: DR12

    Samplerate: 44100 Hz
    Channels: 2
    Bits per sample: 16
    Bitrate: 713 kbps
    Codec: FLAC
    ================================================================================
    --------------------------------------------------------------------------------
    Analyzed: Johann Sebastian Bach / Festliche Barockmusik (1)
    Tomaso Albinoni / Festliche Barockmusik (2)
    --------------------------------------------------------------------------------

    DR Peak RMS Duration Track
    --------------------------------------------------------------------------------
    DR13 -2.69 dB -19.54 dB 12:20 02-Brandenburgisches Konzert Nr. 3 BWV 1048
    DR14 -1.33 dB -20.17 dB 7:37 05-Adagio g-moll
    --------------------------------------------------------------------------------

    Number of tracks: 2
    Official DR value: DR14

    Samplerate: 44100 Hz
    Channels: 2
    Bits per sample: 16
    Bitrate: 713 kbps
    Codec: FLAC
    ================================================================================



    CD Info:

    Camerata Bern - Festive Baroque Music

    Works by Bach, Pachelbel, Vivaldi, Albinoni & others

    Label: Novalis
    Catalog#: 150 004-2
    Format: CD, Album
    Country: Switzerland
    Released: 1985
    Genre: Classical
    Style: Baroque

    Tracklist:

    1 Francesco Manfredini - Concerto grosso op. 3 Nr. 12 8:27
    2 Johann Sebastian Bach - Brandenburgisches Konzert Nr. 3 BWV 1048 12:20
    3 Johann Pachelbel - Kanon und Gigue D-dur 6:04
    4 Antonio Vivaldi - Concerto fuer Streicher und Cembalo RV 109 (PV 67)* 3:58
    5 Tomaso Albinoni - Adagio g-moll 7:37
    6 Georg Friedrich Haendel - Concero grosso op. 6 Nr. 5 14:07
    7 Henry Purcell - Pavane und Chaconne 7:06

    Camerata Bern, Leader and Direction Thomas Füri

    *Premiere Recording

    Recorded: Radio-Studio Bern (Switzerland) 11/1985
    Recording Engineer: Heinz Wildhagen

    Located in Bern, Switzerland, the Camerata Bern was founded in 1963 by musicians as a flexible chamber orchestra without a conductor. The Camerata Bern performs early Baroque to contemporary classical music. The group tours extensively worldwide and has released several CDs. ~wikipedia



    ________________

    NITROFLARE

    Music Pt. 1 | | Music Pt. 2

    Artwork

    ________________


    Free Full Download Camerata Bern - Festliche form Torrent Download with keygen, crack, serial, 1080p, hdrip, 720p, 2015, 2016

    Corelli: Concerti Grossi Op. 6 - Beznosiuk Avison Ensemble (2012)


    Corelli: Concerti Grossi Op. 6 - Beznosiuk, Avison Ensemble (2012)
    EAC Rip | Flac (Image + cue + log) | 2 CDs | Full Scans | 628 MB
    Genre: Classical | Label: Linn Records | Catalog Number: 411
    “The release of Concerti Grossi Opus 6 marks the beginning of Linn and The Avison Ensemble’s commitment to record Corelli’s complete chamber music. Arcangelo Corelli was one of...

    Santana - The Magic Of Santana (2015)


    Santana - The Magic Of Santana
    Blues Rock | MP3 CBR 320 kbps | 67:15 min | 161 MB + 5% Recovery
    Label: Chinese Dragon Music | Tracks: 14 | Rls.date: 2015
    The Magic of Santana are Europe’s premier Santana show, now featuring Original Members of Carlos Santana’s band. This show was the first Tony has ever performed with a Santana “tribute” band, and the first time in over...

    Kris Kristofferson - Please Dont Tell Me How The Story Ends: The Publishing Demos 1968-72 (2010)


    Kris Kristofferson - Please Don't Tell Me How The Story Ends: The Publishing Demos 1968-72 (2010)
    EAC | FLAC | Image+Cue+Log+Scans ~ 262 Mb (incl 5%) | Mp3 320kbps ~ 147 Mb (incl 5%)
    Genre: Country, Folk Rock, Country Rock, Singer-songwriter | Label: Light In The Attic, Sony Music | # LITA 050 | Time: 00:51:45
    “”Please Don't Tell Me How The Story Ends: The...

    VA - Razormaid! 7th Anniversary: 7 CD Limited Edition Box Set (1992)


    VA - Razormaid! 7th Anniversary: 7 CD Limited Edition Box Set (1992)
    Electronic, Synth-pop, New Beat, Disco | MP3 CBR 320 kbps | 1,35 Gb | Covers - 14 Mb
    Label: Razormaid Records | Release Year: 1992
    “ Razormaid Records was established in the mid-80s and Joseph Watt Art Maharg in San Francisco, California as a music service club DJs. Their goal was to offer...

    Donna Summer - Hits Singles and More (2015)


    Donna Summer - Hits Singles and More (2015)
    MP3 320 kbps CBR | 02:16:12 | 318 MB
    Genre: Disco, Pop, Dance, RnB | Label: Music Club Deluxe
    Donna Summer gained prominence during the disco era of music, rightly earning the title "The Queen of Disco" and becoming one of the most successful recording artists of the 1970s. She was the first artist to have three...

    Toshio Hosokawa and Gagaku - Deep Silence


    Toshio Hosokawa and Gagaku - Deep Silence
    Classical | EAC: FLAC+Cue+Log | 1 Cd, Covers + Booklet | 487 Mb
    Label:Wergo - Date:2004
    ““Music,” says Toshio Hosokawa, “is the place where notes and silence meet.” This identifies his aesthetic concept as a genuinely Japanese one. It is found both in Japanese landscape painting and in the music, such as the courtly gagaku, in...

    VA - Farm Aid A Very Special Live Performance DVD 2003


    VA - Farm Aid A Very Special Live Performance 2003 (DVD-9)
    DVD-9 | PAL | VOB | Screen 16:9 | Total Duration: Approximately 122 Min | All Regions | 7.6 GB | + Covers
    Genre: Country/Rock/Pop | English | Color | Dolby Digital 2.0 | DTS | Dolby Digital 5.1
    RAR 5% Rec. | RS.com + HF.com + FS.com
    “"Farm aid 2003 - A very special live performance for the heartland of...

    Ferrante & Teicher - Latin Pianos (LP 1960)


    Ferrante & Teicher - Latin Pianos (LP 1960)
    mp3 CBR 320 kbps | tracks: 12 | ~ 80 Mb | 36:12 | Scan
    Label: United Artists | Genre: Instrumental, twin pianos, orchestra
    Brilliant music, quick rhythms, happy dancing mood and amazing virtuosity, these are the characteristics of Ferrante & Teicher twin pianos performances. And what could be better as introduction to their...

    Diana Ross & The Supremes - Motown Albums 1964-1969 10CD Japanese Mini-LP SHM-CD Remastered Reissue 2012


    Diana Ross & The Supremes - Motown Albums 1964-1969 [10CD] Japanese Mini-LP SHM-CD Remastered Reissue 2012
    EAC | FLAC | Image (Cue&Log) ~ 2.3 Gb (incl 5%) | Mp3 (CBR320/Stereo) ~ 1.3 Gb (incl 5%) | Scans ~ 1.3 Gb
    Genre: Motown, R&B, Soul, Funk, AM Pop | Label: Motown Records/Universal Music Japan | Time: 05:38:04
    “Cardboard sleeve (mini LP) reissue from...

    Tangerine Dream - Tangram 2008 (2008)


    Tangerine Dream - Tangram 2008 (2008)
    Genre: Electronica | MP3 192 Kbps | 54 MB | June 2008
    Publisher: Eastgate Studios | Composer: Edgar Froese
    "This CD is a limited edition and Eastgate Music sold just 2000 copies. This new studio album is a remake of the original recording session back in Berlin in 1980. If you want to know more about the character of the music on the...

EximiousSoft Banner Maker Pro 3.00 Portable
File size: 55.6 MB It is a great application for ceating GIF banner ads. web
Wondershare Video Converter Ultimate 10.0.11.128 Multilingual
File Size: 153 MB Wondershare Video Converter Ultimate is a complete video
TrustViewer 1.4.8 Build 1316 Portable
File Size : 1.5 Mb The program TrustViewer allows you to quickly make a remote
WYSIWYG Web Builder 12.2.1 Portable
File size: 11.3 MB WYSIWYG Web Builder is a WYSIWYG
Hollywood Portraits Hot-Light Techniques for Professional
Lou Szoke, "Hollywood Portraits: Hot-Light Techniques for Professional
Hoist & Haul 2015 Proceedings of the International
Hoist & Haul 2015: Proceedings of the International Conference on Hoisting
Guilty Money The City of London in Victorian and Edwardian
Ranald C Michie, "Guilty Money: The City of London in Victorian and Edwardian
Guidelines for Cloud Seeding to Augment Precipitation (3rd
Guidelines for Cloud Seeding to Augment Precipitation (3rd edition) By Conrad
The Big Bang Theory S11E13 HDTV x264-SVA
The Big Bang Theory S11E13 HDTV x264-SVA Size: 165 MiB | Duration: 00:20:52 |
The Big Bang Theory S11E13 720p HDTV x264-AVS
The Big Bang Theory S11E13 720p HDTV x264-AVS Size: 626 MiB | Duration:
Professor Marston And The Wonder Women 2017 BDRip x264-DRONES
Professor Marston And The Wonder Women 2017 BDRip x264-DRONES Size: 433 MiB |
Professor Marston And The Wonder Women 2017 1080p BluRay
Professor Marston And The Wonder Women 2017 1080p BluRay x264-DRONES Size:

Free Download Resources and Torrent - ChipGFX.

Not Store Any File In Server. The Links Are Provided Solely By This Site's Users.

If You Have Any Doubts About Legality Of Content, Feel Free To Contact US.
© 2015 - 2017