Chip GFX

Free Download Resources and Torrent
    New Download Links
    Speed
     kbps
     kbps
     kbps

    Andrea Bocelli - Andrea (2004) UK Edition

    Category: musics data: 20-12-2015, 20:24
    Rating:
    (votes: 0)
    Andrea Bocelli - Andrea (2004) front

    Andrea Bocelli - Andrea (2004)
    EAC | Flac(Image) + Cue + Log & MP3 CBR 320Kbps
    Sugar, 0602498679739 | ~ 359 or 139 Mb | Scans(png) -> 462 Mb
    Classical / Vocal / Pop

    Andrea Bocelli long ago set the standard for "crossover" classical tenors, and ANDREA proves yet again that when it comes to ultra-romantic singing, no one does it better. Longtime collaborators Francesco Sartori, Mauro Malavasi, and Celso Valli provide more of the soaring operatic-style ballads and lush production work familar to Bocelli's fans. "Dell'Amore Non Si Sa," "Liberta," and "Tu Ci Sei," among others, are tailor-made for his warm, rich tone and velvety phrasing. Bocelli also enlists some new songwriting talent for a slight change of pace, notably with the flamenco-flavored "Sin Tu Amor" and the atmospheric "Per Noi," as well as "Go Where Love Goes," a duet sung in English with vocal prodigy Holly Stell. Covers of Enrique Iglesias's "Un Nuovo Giorno" (known in English as "The First Day of My Life") and Lucio Dalla's "Quante Volte Ti Ho Cercato" show that the superstar singer doesn't stray far from the usual path; Bocelli knows what his adoring public clamors for, and he never disappoints. Smooth, suave, and sexy, ANDREA is sure to set a multitude of hearts throbbing.

    ~ AMG

    Andrea Bocelli


    Andrea Bocelli - Andrea (2004):

    Andrea Bocelli - Andrea (2004) cd

    Tracklist:

    01. Dell'amore non si sa
    02. L'attesa
    03. Un nuovo giorno (First Day of My Life)
    04. Tu ci sei
    05. Semplicemente (Canto per te)
    06. Sin tu amor - featuring Mario Reyes
    07. Libertà
    08. Per noi
    09. Le parole che non ti ho detto
    10. Sempre o mai
    11. In canto
    12. Quante volte ti ho cercato
    13. Domani
    14. Go Where Love Goes - featuring Holly Stell

    EAC Log
    Exact Audio Copy V1.0 beta 3 from 29. August 2011

    EAC extraction logfile from 9. October 2012, 11:32

    Andrea Bocelli / Andrea {UK Edition} (0602498679739)

    Used drive : TSSTcorpCDDVDW TS-L633C Adapter: 2 ID: 0

    Read mode : Secure
    Utilize accurate stream : Yes
    Defeat audio cache : Yes
    Make use of C2 pointers : No

    Read offset correction : 6
    Overread into Lead-In and Lead-Out : No
    Fill up missing offset samples with silence : Yes
    Delete leading and trailing silent blocks : No
    Null samples used in CRC calculations : Yes
    Used interface : Native Win32 interface for Win NT & 2000

    Used output format : Internal WAV Routines
    Sample format : 44.100 Hz; 16 Bit; Stereo TOC of the extracted CD

    Track | Start | Length | Start sector | End sector
    ---------------------------------------------------------
    1 | 0:00.00 | 3:45.26 | 0 | 16900
    2 | 3:45.26 | 4:31.13 | 16901 | 37238
    3 | 8:16.39 | 4:13.42 | 37239 | 56255
    4 | 12:30.06 | 4:44.33 | 56256 | 77588
    5 | 17:14.39 | 4:31.39 | 77589 | 97952
    6 | 21:46.03 | 3:57.50 | 97953 | 115777
    7 | 25:43.53 | 4:00.08 | 115778 | 133785
    8 | 29:43.61 | 4:08.64 | 133786 | 152449
    9 | 33:52.50 | 4:36.50 | 152450 | 173199
    10 | 38:29.25 | 3:42.28 | 173200 | 189877
    11 | 42:11.53 | 4:14.05 | 189878 | 208932
    12 | 46:25.58 | 5:09.45 | 208933 | 232152
    13 | 51:35.28 | 3:10.41 | 232153 | 246443
    14 | 54:45.69 | 4:11.34 | 246444 | 265302 Range status and errors

    Selected range

    Filename C:UsersuserDesktopAndrea Bocelli - Andrea {UK Edition} (0602498679739).wav

    Peak level 100.0 %
    Extraction speed 3.9 X
    Range quality 100.0 %
    Test CRC D7480A65
    Copy CRC D7480A65
    Copy OK

    No errors occurred


    AccurateRip summary

    Track 1 accurately ripped (confidence 8) [72B6B971] (AR v1)
    Track 2 accurately ripped (confidence 8) [F4E42608] (AR v1)
    Track 3 accurately ripped (confidence 8) [43654083] (AR v1)
    Track 4 accurately ripped (confidence 8) [2713C8FC] (AR v1)
    Track 5 accurately ripped (confidence 8) [1C5BDC2B] (AR v1)
    Track 6 accurately ripped (confidence 8) [10AB880A] (AR v1)
    Track 7 accurately ripped (confidence 8) [FD1F915F] (AR v1)
    Track 8 accurately ripped (confidence 8) [308DAB35] (AR v1)
    Track 9 accurately ripped (confidence 8) [AD02CADE] (AR v1)
    Track 10 accurately ripped (confidence 8) [98C27945] (AR v1)
    Track 11 accurately ripped (confidence 8) [A71FB944] (AR v1)
    Track 12 accurately ripped (confidence 8) [2F55EBD3] (AR v1)
    Track 13 accurately ripped (confidence 8) [C1D2E09B] (AR v1)
    Track 14 accurately ripped (confidence 7) [6A5FC1F4] (AR v1)

    All tracks accurately ripped

    End of status report

    DR Log
    foobar2000 1.2.9 / Dynamic Range Meter 1.1.1
    log date: 2015-05-18 02:02:46

    --------------------------------------------------------------------------------
    Analyzed: Andrea Bocelli / Andrea {UK Edition} (0602498679739)
    --------------------------------------------------------------------------------

    DR Peak RMS Duration Track
    --------------------------------------------------------------------------------
    DR8 -0.74 dB -13.06 dB 3:45 01-Dell'amore non si sa
    DR7 -0.06 dB -10.04 dB 4:31 02-L'attesa
    DR8 -0.50 dB -10.99 dB 4:14 03-Un nuovo giorno (First Day of My Life)
    DR7 -0.74 dB -11.87 dB 4:44 04-Tu ci sei
    DR8 -0.67 dB -12.27 dB 4:32 05-Semplicemente (Canto per te)
    DR7 -0.06 dB -9.38 dB 3:58 06-Liberta
    DR9 0.00 dB -12.62 dB 4:00 07-Per noi
    DR7 -0.72 dB -10.52 dB 4:09 08-Le parole che non ti ho detto
    DR9 0.00 dB -10.45 dB 4:37 09-Sin tu amor (Featuring Mario Reyes)
    DR8 0.00 dB -10.57 dB 3:42 10-Sempre o mai
    DR7 -0.29 dB -11.61 dB 4:14 11-In-canto
    DR9 -0.64 dB -11.27 dB 5:10 12-Quante volte ti ho cercato
    DR9 -0.76 dB -14.72 dB 3:11 13-Domani
    DR5 -0.97 dB -9.55 dB 4:11 14-Go Where Love Goes (Featuring Holly Stell)
    --------------------------------------------------------------------------------

    Number of tracks: 14
    Official DR value: DR8

    Samplerate: 44100 Hz
    Channels: 2
    Bits per sample: 16
    Bitrate: 828 kbps
    Codec: FLAC

    CUETools Log
    [CUETools log; Date: 18.05.2015 2:03:07; Version: 2.1.4]
    [CTDB TOCID: ZKnWi_J2p9pn_jCx28zjNXrlAHo-] found.
    Track | CTDB Status
    1 | (4/4) Accurately ripped
    2 | (4/4) Accurately ripped
    3 | (4/4) Accurately ripped
    4 | (4/4) Accurately ripped
    5 | (4/4) Accurately ripped
    6 | (4/4) Accurately ripped
    7 | (4/4) Accurately ripped
    8 | (4/4) Accurately ripped
    9 | (4/4) Accurately ripped
    10 | (4/4) Accurately ripped
    11 | (4/4) Accurately ripped
    12 | (4/4) Accurately ripped
    13 | (4/4) Accurately ripped
    14 | (4/4) Accurately ripped
    [AccurateRip ID: 001e9397-01462683-c60dd10e] found.
    Track [ CRC | V2 ] Status
    01 [72b6b971|69621b61] (08+11/24) Accurately ripped
    02 [f4e42608|60195c9c] (08+11/24) Accurately ripped
    03 [43654083|ac773da7] (08+11/24) Accurately ripped
    04 [2713c8fc|2c30ee2d] (08+11/24) Accurately ripped
    05 [1c5bdc2b|0485456d] (08+11/23) Accurately ripped
    06 [10ab880a|34c7abe1] (08+11/24) Accurately ripped
    07 [fd1f915f|55408f02] (08+11/24) Accurately ripped
    08 [308dab35|7ff0d055] (08+11/24) Accurately ripped
    09 [ad02cade|c5797cce] (08+11/24) Accurately ripped
    10 [98c27945|aa21e124] (08+11/24) Accurately ripped
    11 [a71fb944|f3f37e16] (08+11/24) Accurately ripped
    12 [2f55ebd3|5bc09151] (08+11/24) Accurately ripped
    13 [c1d2e09b|af1e56c3] (08+11/24) Accurately ripped
    14 [6a5fc1f4|a8180e63] (07+11/23) Accurately ripped
    Offsetted by -664:
    01 [c295bd1d] (02/24) Accurately ripped
    02 [07f3c7d6] (02/24) Accurately ripped
    03 [ed1024b8] (02/24) Accurately ripped
    04 [3c8595cd] (02/24) Accurately ripped
    05 [621d55cb] (02/23) Accurately ripped
    06 [6e9a3cdc] (02/24) Accurately ripped
    07 [9bef3fe5] (02/24) Accurately ripped
    08 [112d43a1] (02/24) Accurately ripped
    09 [4c294359] (02/24) Accurately ripped
    10 [3e7cf86e] (02/24) Accurately ripped
    11 [a78b2036] (02/24) Accurately ripped
    12 [4398a67d] (02/24) Accurately ripped
    13 [1ef34d20] (02/24) Accurately ripped
    14 [1e154a63] (02/23) Accurately ripped

    Track Peak [ CRC32 ] [W/O NULL] [ LOG ]
    -- 100,0 [D7480A65] [A348CE2E] CRC32
    01 91,7 [C92A4514] [9135B9BF]
    02 99,2 [9741ACCE] [CE5EFC9A]
    03 94,3 [A91F193E] [20A344C9]
    04 91,8 [DB39B994] [37F2B8DE]
    05 92,5 [81A2B216] [14019EBF]
    06 99,3 [8A7DE4C3] [64B6F73E]
    07 100,0 [A3C73C8C] [B01724F3]
    08 92,0 [8BA5FFF3] [CC19D249]
    09 100,0 [EBE14495] [5EFB9D01]
    10 100,0 [FF3D9ED6] [6E3A0EC9]
    11 96,6 [DCB6E0E9] [C8B5497B]
    12 92,9 [DCC9AB9B] [5E269C30]
    13 91,6 [CDA287D3] [1EA15C53]
    14 89,4 [D0F21593] [B94DCA7E]

    Andrea Bocelli - Andrea (2004) back

    All thanks go to italia57

    More Andrea Bocelli in my Blog

    Download Andrea Bocelli - Andrea (2004):



    Free Full Download Andrea Bocelli - Andrea (2004) UK form Torrent Download with keygen, crack, serial, 1080p, hdrip, 720p, 2015, 2016

    Loretta Lynn - Van Lear Rose 2004 (Limited Edition 2015)


    Loretta Lynn - Van Lear Rose 2004 (Limited Edition 2015)
    Country, Americana, Folk Rock | MP3 CBR 320 kbps | Artworks | 00:43:21 | 127 MB
    Label: Third Man Records | Release Year: 2015
    On a sheer sonic level, the album is enthralling it's easy to get lost in the music, and Lynn sings with a vigor that's startling for a woman of 70 but it's an instant classic...

    Inkswel - Super Foods Vol.2 (2015)


    Inkswel - Super Foods Vol.2 (2015)
    Label: BBE | MP3 320 kbps CBR | 61:09 min | 141 mb
    Electronic, Soul, Funk, Disco
    Inskwel is back on BBE! Across this second edition of Super Foods you'll find a load of heavy hitting drums, and they're particularly nice sounding on "Insense" featuring the lovely vocals of Charli James - and who can deny the slam of...

    B.B. King - B.B. King & Friends (2007)


    B.B. King - B.B. King & Friends (2007)
    2CD | EAC Rip | FLAC (Img) + Cue + Log ~ 479 Mb | MP3 CBR320 ~ 299 Mb
    Scans Included (JPG, 400 dpi) | RAR 5% Recovery
    Blues | Cleopatra Records/Stardust Records #CLP 2040
    “Explore the world of Delta blues with the great B.B. King and his forerunners and peers, including Sonny Boy Williamson, Elmore James, Mississippi Fred...

    Beth Hart - Bang Bang Boom Boom (2013) Limited Edition


    Beth Hart - Bang Bang Boom Boom (2013)
    EAC Rip | FLAC (Img) + Cue + Log ~ 337 Mb | MP3 CBR320 ~ 129 Mb
    Scans (JPG, 400 dpi) ~ 43 Mb | RAR 5% Recovery
    Blues Rock, Country Blues, Piano Blues, Pop Rock | Provogue Records #PRD 73932 US
    “Beth Hart received a considerable boost from her collaboration with guitarist Joe Bonamassa, but her 2013 album, Bang Bang Boom Boom,...

    VA - Shanghai Lounge Vol. 2 (2004)


    VA - Shanghai Lounge Vol. 2 (2004)
    EAC | FLAC | Image (Cue&Log) ~ 965 Mb (incl 5%) | Mp3 (CBR320) ~ 383 Mb (incl 5%) | Scans included
    Genre: Chillout, Lounge | Label: High Note Records | # HN193CD | Time: 02:19:44
    “From the High Note Records label, this is volume 2 in the beautifully packaged collection of exquisite, high-end lounge music featuring Praful,...

    Giorgio - Knights In White Satin (1976) 2011 Remastered


    Giorgio - Knights In White Satin (1976)
    EAC Rip | FLAC (Img) + Cue + Log ~ 349 Mb | MP3 CBR320 ~ 117 Mb
    Scans (PNG, 600 dpi) ~ 224 Mb | RAR 5% Recovery
    Disco | Repertoire Records #REP 5215
    “Digitally remastered and expanded edition. Giorgio Moroder is a brilliant songwriter and has produced recordings by world class artists such as David Bowie, Barbra Streisand and...

    Ray Charles - At Newport (1958)


    Ray Charles - At Newport (1958)
    EAC RIP | FLAC (tracks)+CUE+LOG+Full Covers / MP3 - CBR 320 Kbps | 285 MB / 116 MB
    Jazz, Urban Blues, Piano Blues, Early R&B, Latin, Vocal | July 5, 1958 | Audio CD (October 21, 1998) | Label: Atlantic UK
    “Remastered and rereleased in limited edition to celebrate the 50th anniversary of Atlantic Records, AT NEWPORT features eight of...

    VA - Razormaid! 7th Anniversary: 7 CD Limited Edition Box Set (1992)


    VA - Razormaid! 7th Anniversary: 7 CD Limited Edition Box Set (1992)
    Electronic, Synth-pop, New Beat, Disco | MP3 CBR 320 kbps | 1,35 Gb | Covers - 14 Mb
    Label: Razormaid Records | Release Year: 1992
    “ Razormaid Records was established in the mid-80s and Joseph Watt Art Maharg in San Francisco, California as a music service club DJs. Their goal was to offer...

    Toshio Hosokawa and Gagaku - Deep Silence


    Toshio Hosokawa and Gagaku - Deep Silence
    Classical | EAC: FLAC+Cue+Log | 1 Cd, Covers + Booklet | 487 Mb
    Label:Wergo - Date:2004
    ““Music,” says Toshio Hosokawa, “is the place where notes and silence meet.” This identifies his aesthetic concept as a genuinely Japanese one. It is found both in Japanese landscape painting and in the music, such as the courtly gagaku, in...

    Tangerine Dream - Tangram 2008 (2008)


    Tangerine Dream - Tangram 2008 (2008)
    Genre: Electronica | MP3 192 Kbps | 54 MB | June 2008
    Publisher: Eastgate Studios | Composer: Edgar Froese
    "This CD is a limited edition and Eastgate Music sold just 2000 copies. This new studio album is a remake of the original recording session back in Berlin in 1980. If you want to know more about the character of the music on the...

EximiousSoft Banner Maker Pro 3.00 Portable
File size: 55.6 MB It is a great application for ceating GIF banner ads. web
Wondershare Video Converter Ultimate 10.0.11.128 Multilingual
File Size: 153 MB Wondershare Video Converter Ultimate is a complete video
TrustViewer 1.4.8 Build 1316 Portable
File Size : 1.5 Mb The program TrustViewer allows you to quickly make a remote
WYSIWYG Web Builder 12.2.1 Portable
File size: 11.3 MB WYSIWYG Web Builder is a WYSIWYG
Hollywood Portraits Hot-Light Techniques for Professional
Lou Szoke, "Hollywood Portraits: Hot-Light Techniques for Professional
Hoist & Haul 2015 Proceedings of the International
Hoist & Haul 2015: Proceedings of the International Conference on Hoisting
Guilty Money The City of London in Victorian and Edwardian
Ranald C Michie, "Guilty Money: The City of London in Victorian and Edwardian
Guidelines for Cloud Seeding to Augment Precipitation (3rd
Guidelines for Cloud Seeding to Augment Precipitation (3rd edition) By Conrad
The Big Bang Theory S11E13 HDTV x264-SVA
The Big Bang Theory S11E13 HDTV x264-SVA Size: 165 MiB | Duration: 00:20:52 |
The Big Bang Theory S11E13 720p HDTV x264-AVS
The Big Bang Theory S11E13 720p HDTV x264-AVS Size: 626 MiB | Duration:
Professor Marston And The Wonder Women 2017 BDRip x264-DRONES
Professor Marston And The Wonder Women 2017 BDRip x264-DRONES Size: 433 MiB |
Professor Marston And The Wonder Women 2017 1080p BluRay
Professor Marston And The Wonder Women 2017 1080p BluRay x264-DRONES Size:

Free Download Resources and Torrent - ChipGFX.

Not Store Any File In Server. The Links Are Provided Solely By This Site's Users.

If You Have Any Doubts About Legality Of Content, Feel Free To Contact US.
© 2015 - 2017