Chip GFX

Free Download Resources and Torrent
    New Download Links
    Speed
     kbps
     kbps
     kbps

    Dudley Taft - Deep Deep Blue (2013)

    Category: musics data: 20-12-2015, 20:24
    Rating:
    (votes: 1)

    Dudley Taft - Deep Deep Blue (2013)
    EAC Rip | FLAC (Img) + Cue + Log ~ 379 Mb | MP3 CBR320 ~ 117 Mb
    Scans (JPG, 600 dpi) ~ 73 Mb | RAR 5% Recovery
    Blues, Rock | American Blues Artist Group/Taft Enterprises | 884501878807

    On Deep Deep Blue, Taft pulls together his influences – geographical, biographical and musical – and filters them through his blue soul. The result is a genre-busting slab of tunes, blending his Midwestern roots with his love of the blues, the British Invasion and Southern Rock, seasoned with songwriting and musicianship nurtured through 30-plus years as a musician. The new album, the second solo release from Taft, includes eight originals, plus deft takes on a diverse group of covers from Bob Dylan (“Meet Me in the Morning”), Lou Reed (“Sally Can’t Dance”) and Freddie King (“Palace of the King”).


    Track List:

    01. Meet Me In The Morning [04:43]
    02. The Waiting [03:46]
    03. God Forbid [04:19]
    04. Sally Cant Dance [03:56]
    05. Deep Deep Blue [06:35]
    06. Feeling Good Now [04:27]
    07. Wishing Well [04:12]
    08. Satisfy You [04:38]
    09. Bandit Queen [02:53]
    10. Palace of The King [04:26]
    11. Shanks Akimbo [05:05]

    EAC Log
    Exact Audio Copy V0.99 prebeta 5 from 4. May 2009

    Отчёт EAC об извлечении, выполненном 8. июня 2013, 9:59

    Dudley Taft / Deep Deep Blue

    Дисковод: PLEXTOR DVDR PX-880SA Adapter: 1 ID: 0

    Режим чтения : Достоверность
    Использование точного потока : Да
    Отключение кэша аудио : Да
    Использование указателей C2 : Нет

    Коррекция смещения при чтении : 6
    Способность читать области Lead-in и Lead-out : Нет
    Заполнение пропущенных сэмплов тишиной : Да
    Удаление блоков с тишиной в начале и конце : Нет
    При вычислениях CRC использовались нулевые сэмплы : Да
    Интерфейс : Установленный внешний ASPI-интерфейс

    Выходной формат : Пользовательский кодировщик
    Выбранный битрейт : 1024 kBit/s
    Качество : Высокий
    Добавление ID3-тэга : Нет
    Утилита сжатия : C:Program FilesExact Audio CopyFLACFLAC.EXE
    Дополнительные параметры : -10 -V -T "ARTIST=%a" -T "TITLE=%t" -T "ALBUM=%g" -T "DATE=%y" -T "TRACKNUMBER=%n" -T "GENRE=%m" -T "COMMENT=%e" %s -o %d TOC извлечённого CD

    Трек | Старт | Длительность | Начальный сектор | Конечный сектор
    ---------------------------------------------------------------------
    1 | 0:00.00 | 4:42.29 | 0 | 21178
    2 | 4:42.29 | 3:45.31 | 21179 | 38084
    3 | 8:27.60 | 4:18.54 | 38085 | 57488
    4 | 12:46.39 | 3:55.12 | 57489 | 75125
    5 | 16:41.51 | 6:34.21 | 75126 | 104696
    6 | 23:15.72 | 4:26.48 | 104697 | 124694
    7 | 27:42.45 | 4:11.34 | 124695 | 143553
    8 | 31:54.04 | 4:37.21 | 143554 | 164349
    9 | 36:31.25 | 2:52.56 | 164350 | 177305
    10 | 39:24.06 | 4:25.19 | 177306 | 197199
    11 | 43:49.25 | 5:04.14 | 197200 | 220013 Характеристики диапазона извлечения и сообщения об ошибках

    Выбранный диапазон

    Имя файла D:BitCometDudley Taft - Deep Deep Blue(2013)Dudley Taft - Deep Deep Blue.wav

    Пиковый уровень 100.0 %
    Качество диапазона 100.0 %
    CRC теста B99F80FB
    CRC копии B99F80FB
    Копирование... OK

    Ошибок не произошло


    AccurateRip: сводка

    Трек 1 нет в базе данных
    Трек 2 нет в базе данных
    Трек 3 нет в базе данных
    Трек 4 нет в базе данных
    Трек 5 нет в базе данных
    Трек 6 нет в базе данных
    Трек 7 нет в базе данных
    Трек 8 нет в базе данных
    Трек 9 нет в базе данных
    Трек 10 нет в базе данных
    Трек 11 нет в базе данных

    Ни одного трека нет в базе AccurateRip

    Конец отчёта

    DR Log
    foobar2000 1.2.6 / Dynamic Range Meter 1.1.1
    log date: 2015-10-25 01:06:19

    --------------------------------------------------------------------------------
    Analyzed: Dudley Taft / Deep Deep Blue
    --------------------------------------------------------------------------------

    DR Peak RMS Duration Track
    --------------------------------------------------------------------------------
    DR8 0.00 dB -8.81 dB 4:42 01-Meet Me In The Morning
    DR9 -0.09 dB -9.70 dB 3:45 02-The Waiting
    DR10 -0.04 dB -11.54 dB 4:19 03-God Forbid
    DR8 0.00 dB -9.74 dB 3:55 04-Sally Cant Dance
    DR7 0.00 dB -7.60 dB 6:34 05-Deep Deep Blue
    DR10 0.00 dB -10.99 dB 4:27 06-Feeling Good Now
    DR8 -0.04 dB -10.19 dB 4:11 07-Wishing Well
    DR9 0.00 dB -9.54 dB 4:37 08-Satisfy You
    DR8 0.00 dB -8.87 dB 2:53 09-Bandit Queen
    DR8 0.00 dB -9.12 dB 4:25 10-Palace of The King
    DR8 -0.07 dB -9.45 dB 5:04 11-Shanks Akimbo
    --------------------------------------------------------------------------------

    Number of tracks: 11
    Official DR value: DR8

    Samplerate: 44100 Hz
    Channels: 2
    Bits per sample: 16
    Bitrate: 1031 kbps
    Codec: FLAC
    ================================================================================

    CUETools Log
    [CUETools log; Date: 25.10.2015 1:06:06; Version: 2.1.5]
    [CTDB TOCID: VYQjJF5NP4PR46SkB2aF4hJuShw-] found.
    Track | CTDB Status
    1 | (2/2) Accurately ripped
    2 | (2/2) Accurately ripped
    3 | (2/2) Accurately ripped
    4 | (2/2) Accurately ripped
    5 | (2/2) Accurately ripped
    6 | (2/2) Accurately ripped
    7 | (2/2) Accurately ripped
    8 | (2/2) Accurately ripped
    9 | (2/2) Accurately ripped
    10 | (2/2) Accurately ripped
    11 | (2/2) Accurately ripped
    [AccurateRip ID: 001432af-00af1169-990b750b] found.
    Track [ CRC | V2 ] Status
    01 [4df87517|fb3bb00b] (0+4/4) Accurately ripped
    02 [32331ead|af0f6f3d] (0+4/4) Accurately ripped
    03 [a9698e74|2f85ac24] (0+4/4) Accurately ripped
    04 [5eee6dc3|a001d356] (0+4/4) Accurately ripped
    05 [8109f5a0|a9af0548] (0+4/4) Accurately ripped
    06 [a8620ccf|cb3c9bbc] (0+4/4) Accurately ripped
    07 [cbbd449e|897757d7] (0+4/4) Accurately ripped
    08 [b1c98751|4a2ec382] (0+4/4) Accurately ripped
    09 [1e933287|b562f361] (0+4/4) Accurately ripped
    10 [2fdb1201|43fd435f] (0+4/4) Accurately ripped
    11 [a3e8e18a|630cebc8] (0+4/4) Accurately ripped

    Track Peak [ CRC32 ] [W/O NULL] [ LOG ]
    -- 100,0 [B99F80FB] [3CA773DE] CRC32
    01 100,0 [3969A6D9] [F30A2FE7]
    02 98,9 [DEA2B52B] [9CA48D2A]
    03 99,5 [2859EE9E] [0CCA4C79]
    04 100,0 [800109C3] [C3FA630A]
    05 100,0 [A54F63FA] [C318E4DF]
    06 100,0 [4FAF828F] [BD389B4D]
    07 99,5 [93AC61E9] [77B99D50]
    08 100,0 [FBBDFA93] [E8A56AD3]
    09 100,0 [B303A7DB] [59CA4698]
    10 100,0 [5E05BE12] [D62813C5]
    11 99,2 [CF237939] [A13C6EEE]


    All thanks go to izia1956
    Download:

    Nitroflare: FLAC-part 1 | FLAC-part 2 | Scans | mp3





    Free Full Download Dudley Taft - Deep Deep Blue (2013) form Torrent Download with keygen, crack, serial, 1080p, hdrip, 720p, 2015, 2016

    Various Artists - Hed Kandi Dusk Till Disco (2015)


    V. A. - Hed Kandi Dusk Till Disco (2015)
    Label: Hed Kandi | MP3 320 kbps CBR | 295:01 min | 681 mb
    Electro-Pop, Nu Disco, Deep House, Dance
    Hed Kandi presents Dusk till Disco 2 CDs of Disco inspired dance music, giving new life to an iconic sound. Hed Kandi is no stranger to Disco (with it's now legendary Twisted Disco album series) and as always, has delivered a...

    Lillo Thomas - Let Me Be Yours (1983) 2013 Remastered Reissue


    Lillo Thomas - Let Me Be Yours (1983) [2013, Remastered Reissue]
    R&B, Soul/Funk, Urban, Post Disco | EAC Rip | FLAC, Img+CUE + LOG + Full Artwork-600dpi (JPEG) | 39:18 Min | 308,69 Mb
    Label: PTG Records (Netherlands) / Capitol Records (USA) | Released: 2013, October, 21
    “Lillo Thomas (born 1961, Brooklyn, New York, United States), is an American former...

    Various Artists - Chilled House Ibiza 2015: Ministry of Sound (2015)


    V. A. - Chilled House Ibiza 2015: Ministry of Sound (2015)
    Label: Ministry of Sound | MP3 320 kbps CBR (Mixed + Unmixed) | 389:18 min | 733 mb
    Chillout, Downtempo, Lounge, Deep House
    Your perfect summertime soundtrack for beach lounging, the morning after the night before and for transporting you back to the sun at the push of a button, is here. Mix features relaxed,...

    Beethoven - Quatuor Voce (2013)


    Beethoven - Quatuor Voce (2013)
    EAC Rip | Flac (Image + cue + log) | 368 MB | MP3 320Kbps CBR | 195 MB | 1 CD | Full Scans
    Genre: Classical | Label: Naive | Catalog Number: 5356
    “In only a few years the Quatuor Voce has received numerous prizes in international competitions and also works regularly with many outstanding artists such as Yuri Bashmet, Gary Hoffman, Nobuko...

    Beth Hart - Bang Bang Boom Boom (2013) Limited Edition


    Beth Hart - Bang Bang Boom Boom (2013)
    EAC Rip | FLAC (Img) + Cue + Log ~ 337 Mb | MP3 CBR320 ~ 129 Mb
    Scans (JPG, 400 dpi) ~ 43 Mb | RAR 5% Recovery
    Blues Rock, Country Blues, Piano Blues, Pop Rock | Provogue Records #PRD 73932 US
    “Beth Hart received a considerable boost from her collaboration with guitarist Joe Bonamassa, but her 2013 album, Bang Bang Boom Boom,...

    John Renbourn - The Nine Maidens (1985) 2005 Sanctuary Records CMRCD 1062


    John Renbourn - The Nine Maidens (1985/2005)
    EAC Rip | FLAC (Img) + Cue + Log ~ 206 Mb | MP3 CBR320 ~ 89 Mb
    Scans (JPG, 600 dpi) ~ 128 Mb | RAR 5% Recovery
    Folk, British Folk-Rock,Instrumental | Sanctuary Records #CMRCD 1062
    “John Renbourn is a fingerstyle guitarist, singer and songwriter. He is known for his work in the group Pentangle, his solo recordings and his...

    Sara Evans - Playlist The Very Best Of Sara Evans (2013)


    Sara Evans - Playlist The Very Best Of Sara Evans (2013)
    Country | MP3 320 kbps CBR | 59 min | 137 MB
    Label: Legacy / RCA | Rel: 2013
    If ever a singer was predestined to take wing, it's Sara Evans, whose pure, sexy, soulful voice has given an airborne lift to everything from the neo-traditional country of "Suds In The Bucket" and "Cheatin" to the...

    Evelyn Champagne King - Call On Me (1980)


    Evelyn ''Champagne'' King - Call On Me (1980)
    Funk, Soul, Disco | MP3 320 kbps CBR | 67 min | 154 MB
    Label: Funky Town Grooves | Rel: 1980
    King's strong, deep-voiced stylings and sensitive edge are the saving graces on her first album of the '80s. Despite overall sturdy production, many of the melodies simply linger on and on and the arrangements...

    Bobby Darin - Oh! Look At Me Now & Hello Dolly To Goodbye Charlie (1962 & 1964) 2on1 Reissue 2001 re-up


    Bobby Darin - Oh! Look At Me Now / Hello Dolly To Goodbye Charlie
    EAC Rip | FLAC+CUE +LOG - 363 MB | 58:03 mins | Full Scans | MP3 CBR 320 Kbps - 132 MB
    1962 & 1964 - 2on1 Reissue 2001 | Traditional Pop / Oldies | Label: Capitol Records | Cat. # 535207-2
    Bobby Darin (May 14, 1936 – December 20, 1973), born Walden Robert Cassotto, was an American singer, actor and...

    Toshio Hosokawa and Gagaku - Deep Silence


    Toshio Hosokawa and Gagaku - Deep Silence
    Classical | EAC: FLAC+Cue+Log | 1 Cd, Covers + Booklet | 487 Mb
    Label:Wergo - Date:2004
    ““Music,” says Toshio Hosokawa, “is the place where notes and silence meet.” This identifies his aesthetic concept as a genuinely Japanese one. It is found both in Japanese landscape painting and in the music, such as the courtly gagaku, in...

EximiousSoft Banner Maker Pro 3.00 Portable
File size: 55.6 MB It is a great application for ceating GIF banner ads. web
Wondershare Video Converter Ultimate 10.0.11.128 Multilingual
File Size: 153 MB Wondershare Video Converter Ultimate is a complete video
TrustViewer 1.4.8 Build 1316 Portable
File Size : 1.5 Mb The program TrustViewer allows you to quickly make a remote
WYSIWYG Web Builder 12.2.1 Portable
File size: 11.3 MB WYSIWYG Web Builder is a WYSIWYG
Hollywood Portraits Hot-Light Techniques for Professional
Lou Szoke, "Hollywood Portraits: Hot-Light Techniques for Professional
Hoist & Haul 2015 Proceedings of the International
Hoist & Haul 2015: Proceedings of the International Conference on Hoisting
Guilty Money The City of London in Victorian and Edwardian
Ranald C Michie, "Guilty Money: The City of London in Victorian and Edwardian
Guidelines for Cloud Seeding to Augment Precipitation (3rd
Guidelines for Cloud Seeding to Augment Precipitation (3rd edition) By Conrad
The Big Bang Theory S11E13 HDTV x264-SVA
The Big Bang Theory S11E13 HDTV x264-SVA Size: 165 MiB | Duration: 00:20:52 |
The Big Bang Theory S11E13 720p HDTV x264-AVS
The Big Bang Theory S11E13 720p HDTV x264-AVS Size: 626 MiB | Duration:
Professor Marston And The Wonder Women 2017 BDRip x264-DRONES
Professor Marston And The Wonder Women 2017 BDRip x264-DRONES Size: 433 MiB |
Professor Marston And The Wonder Women 2017 1080p BluRay
Professor Marston And The Wonder Women 2017 1080p BluRay x264-DRONES Size:

Free Download Resources and Torrent - ChipGFX.

Not Store Any File In Server. The Links Are Provided Solely By This Site's Users.

If You Have Any Doubts About Legality Of Content, Feel Free To Contact US.
© 2015 - 2017