Chip GFX

Free Download Resources and Torrent
    New Download Links
    Speed
     kbps
     kbps
     kbps

    Eylin de Winter - Magic Women (1993) (Repost)

    Category: musics data: 20-12-2015, 20:24
    Rating:
    (votes: 0)

    Eylin de Winter - Magic Women (1993)
    EAC Rip | FLAC (tracks+.cue+log) - 353 MB | MP3 CBR 320 kbps (LAME 3.93) - 141 MB | Covers - 38 MB
    Genre: New Age | RAR 3% Rec. | Label: Innovative Communication (IC 2186-2)

    "Eylin de Winter" is her alias. Secrecy surrounds her real name. She is one of the media attracting hot-shots in the hustling and bustling movie and filmscore scene. Erotic dreams and sensual action with no boundaries are her passion. The music for "Magic Women" was inspired by her novel "Me, female, sexy looks for girl friend...".

    Tracklist:
    01. City Session
    02. Body Flow
    03. Soft As Silk
    04. Magic Woman
    05. Tender Moments
    06. Bi-Seduction
    07. Erotic Moods
    08. Love Or Hurt
    09. Women In Love
    10. Longing For
    11. Pure Woman
    12. Pleasure As Grace
    13. Laughing Wave

    Total time: 59:59

    EAC log
    Exact Audio Copy V0.99 prebeta 4 from 23. January 2008

    EAC extraction logfile from 11. September 2008, 23:08

    Eylin de Winter / Magic Women

    Used drive : _NEC DVD_RW ND-4570A Adapter: 1 ID: 1

    Read mode : Secure
    Utilize accurate stream : Yes
    Defeat audio cache : Yes
    Make use of C2 pointers : No

    Read offset correction : 48
    Overread into Lead-In and Lead-Out : No
    Fill up missing offset samples with silence : Yes
    Delete leading and trailing silent blocks : No
    Null samples used in CRC calculations : Yes
    Used interface : Native Win32 interface for Win NT & 2000
    Gap handling : Appended to previous track

    Used output format : Internal WAV Routines
    Sample format : 44.100 Hz; 16 Bit; Stereo TOC of the extracted CD

    Track | Start | Length | Start sector | End sector
    ---------------------------------------------------------
    1 | 0:00.00 | 3:04.00 | 0 | 13799
    2 | 3:04.00 | 4:31.50 | 13800 | 34174
    3 | 7:35.50 | 5:58.50 | 34175 | 61074
    4 | 13:34.25 | 5:47.62 | 61075 | 87161
    5 | 19:22.12 | 5:45.13 | 87162 | 113049
    6 | 25:07.25 | 3:50.25 | 113050 | 130324
    7 | 28:57.50 | 6:29.50 | 130325 | 159549
    8 | 35:27.25 | 3:39.50 | 159550 | 176024
    9 | 39:07.00 | 4:18.00 | 176025 | 195374
    10 | 43:25.00 | 5:25.00 | 195375 | 219749
    11 | 48:50.00 | 4:24.50 | 219750 | 239599
    12 | 53:14.50 | 3:48.62 | 239600 | 256761
    13 | 57:03.37 | 2:55.38 | 256762 | 269924 Track 1

    Filename O: TorrentsEylin de WinterMagic Women (1993)1 - City Session.wav

    Pre-gap length 0:00:02.00

    Peak level 100.0 %
    Track quality 100.0 %
    Test CRC F7D705B9
    Copy CRC F7D705B9
    Track not present in AccurateRip database
    Copy OK

    Track 2

    Filename O: TorrentsEylin de WinterMagic Women (1993)2 - Body Flow.wav

    Pre-gap length 0:00:03.33

    Peak level 100.0 %
    Track quality 100.0 %
    Test CRC 8224AADC
    Copy CRC 8224AADC
    Track not present in AccurateRip database
    Copy OK

    Track 3

    Filename O: TorrentsEylin de WinterMagic Women (1993)3 - Soft as Silk.wav

    Pre-gap length 0:00:03.00

    Peak level 95.5 %
    Track quality 100.0 %
    Test CRC 3F7AED0B
    Copy CRC 3F7AED0B
    Track not present in AccurateRip database
    Copy OK

    Track 4

    Filename O: TorrentsEylin de WinterMagic Women (1993)4 - Magic Woman.wav

    Pre-gap length 0:00:04.50

    Peak level 100.0 %
    Track quality 100.0 %
    Test CRC 2DB19FD0
    Copy CRC 2DB19FD0
    Track not present in AccurateRip database
    Copy OK

    Track 5

    Filename O: TorrentsEylin de WinterMagic Women (1993)5 - Tender Moments.wav

    Pre-gap length 0:00:04.33

    Peak level 100.0 %
    Track quality 100.0 %
    Test CRC 042DFE63
    Copy CRC 042DFE63
    Track not present in AccurateRip database
    Copy OK

    Track 6

    Filename O: TorrentsEylin de WinterMagic Women (1993)6 - Bi-Seduction.wav

    Pre-gap length 0:00:03.00

    Peak level 100.0 %
    Track quality 100.0 %
    Test CRC 58DEE35F
    Copy CRC 58DEE35F
    Track not present in AccurateRip database
    Copy OK

    Track 7

    Filename O: TorrentsEylin de WinterMagic Women (1993)7 - Erotic Moods.wav

    Pre-gap length 0:00:03.17

    Peak level 100.0 %
    Track quality 100.0 %
    Test CRC 291BB51B
    Copy CRC 291BB51B
    Track not present in AccurateRip database
    Copy OK

    Track 8

    Filename O: TorrentsEylin de WinterMagic Women (1993)8 - Love or hurt.wav

    Pre-gap length 0:00:03.00

    Peak level 99.5 %
    Track quality 100.0 %
    Test CRC 11864C17
    Copy CRC 11864C17
    Track not present in AccurateRip database
    Copy OK

    Track 9

    Filename O: TorrentsEylin de WinterMagic Women (1993)9 - Women in Love.wav

    Pre-gap length 0:00:02.33

    Peak level 95.9 %
    Track quality 99.9 %
    Test CRC 412A2C02
    Copy CRC 412A2C02
    Track not present in AccurateRip database
    Copy OK

    Track 10

    Filename O: TorrentsEylin de WinterMagic Women (1993)10 - Longing for.wav

    Pre-gap length 0:00:02.66

    Peak level 99.8 %
    Track quality 100.0 %
    Test CRC 7C9D51E1
    Copy CRC 7C9D51E1
    Track not present in AccurateRip database
    Copy OK

    Track 11

    Filename O: TorrentsEylin de WinterMagic Women (1993)11 - Pure Woman.wav

    Pre-gap length 0:00:02.33

    Peak level 100.0 %
    Track quality 99.9 %
    Test CRC 87B0C2A1
    Copy CRC 87B0C2A1
    Track not present in AccurateRip database
    Copy OK

    Track 12

    Filename O: TorrentsEylin de WinterMagic Women (1993)12 - Pleasure as Grace.wav

    Pre-gap length 0:00:03.17

    Peak level 99.8 %
    Track quality 100.0 %
    Test CRC 15539FA4
    Copy CRC 15539FA4
    Track not present in AccurateRip database
    Copy OK

    Track 13

    Filename O: TorrentsEylin de WinterMagic Women (1993)13 - Laughing wave.wav

    Pre-gap length 0:00:03.33

    Peak level 84.9 %
    Track quality 100.0 %
    Test CRC 25DC287F
    Copy CRC 25DC287F
    Track not present in AccurateRip database
    Copy OK None of the tracks are present in the AccurateRip database

    No errors occurred

    End of status report

    CUETools log
    [CUETools log; Date: 18.05.2015 19:58:44; Version: 2.1.4]
    [CTDB TOCID: NXYKBoG4TUlkN.icvIjKWJgZpLc-] found.
    Track | CTDB Status
    1 | (6/6) Accurately ripped
    2 | (6/6) Accurately ripped
    3 | (6/6) Accurately ripped
    4 | (6/6) Accurately ripped
    5 | (6/6) Accurately ripped
    6 | (6/6) Accurately ripped
    7 | (6/6) Accurately ripped
    8 | (6/6) Accurately ripped
    9 | (6/6) Accurately ripped
    10 | (6/6) Accurately ripped
    11 | (6/6) Accurately ripped
    12 | (6/6) Accurately ripped
    13 | (6/6) Accurately ripped
    [AccurateRip ID: 001ddade-012b722c-bf0e0f0d] found.
    Track [ CRC | V2 ] Status
    01 [9523a144|daea3d54] (5+3/8) Accurately ripped
    02 [19291dfb|d92ea801] (5+3/8) Accurately ripped
    03 [a3766a43|267afe27] (5+3/8) Accurately ripped
    04 [7590da81|2d3784c1] (5+3/8) Accurately ripped
    05 [9d69c900|ee864245] (5+3/8) Accurately ripped
    06 [ebfb5357|1a18e82c] (5+3/8) Accurately ripped
    07 [d614ff6c|12528a16] (5+3/8) Accurately ripped
    08 [f972e53a|23a0b359] (5+3/8) Accurately ripped
    09 [6ee40cfe|e60586fc] (5+3/8) Accurately ripped
    10 [37b1c0f1|a1e911e0] (5+3/8) Accurately ripped
    11 [be43ddd5|f47a8196] (5+3/8) Accurately ripped
    12 [432c8ef0|900a1b45] (5+3/8) Accurately ripped
    13 [58a25640|24cb47c0] (5+3/8) Accurately ripped

    Track Peak [ CRC32 ] [W/O NULL] [ LOG ]
    -- 100,0 [7B8BC6F0] [E0A2B178]
    01 100,0 [F7D705B9] [C016CC66] CRC32
    02 100,0 [8224AADC] [ACDE7831] CRC32
    03 95,5 [3F7AED0B] [B5C1D79A] CRC32
    04 100,0 [2DB19FD0] [4D6DF1E9] CRC32
    05 100,0 [042DFE63] [6765523A] CRC32
    06 100,0 [58DEE35F] [A0986DCE] CRC32
    07 100,0 [291BB51B] [F400045E] CRC32
    08 99,5 [11864C17] [1C596B15] CRC32
    09 95,9 [412A2C02] [505A64CF] CRC32
    10 99,8 [7C9D51E1] [6FDE7DB6] CRC32
    11 100,0 [87B0C2A1] [CC17E29B] CRC32
    12 99,8 [15539FA4] [A1E19FF1] CRC32
    13 84,9 [25DC287F] [7DD60D69] CRC32

    Thanks to Dub14

    Nitroflare.com

    LOSSLESS:
    Nitroflare.com
    _______________

    MP3 320 kbps:
    Nitroflare.com
    _______________

    Covers:
    Nitroflare.com

    Depositfiles.com

    LOSSLESS:
    Depositfiles.com
    _______________

    MP3 320 kbps:
    Depositfiles.com
    _______________

    Covers:
    Depositfiles.com


    Free Full Download Eylin de Winter - Magic Women form Torrent Download with keygen, crack, serial, 1080p, hdrip, 720p, 2015, 2016

    Santa Esmeralda - The Best (1993)


    Santa Esmeralda - The Best (1993)
    EAC | FLAC | Tracks (Cue&Log) ~ 528 Mb (incl 5%) | Mp3 (CBR320) ~ 203 Mb (incl 5%) | Scans included
    Genre: Disco, Pop, Latin | Label: Versailles, Sony | # VER 474233 2 | Time: 01:16:13
    “As disco became an important part of the international music business, European producers began working in exotic flavors into the disco beat to...

    B.B. King & Eric Clapton - Riding With The King (2000) Repost


    B.B. King & Eric Clapton - Riding With The King (2000)
    MP3 CBR 320 kbps | 12 Tracks | 01:01:15 | 146 MB
    Genre: Blues, Blues Rock | Label: Reprise / Wea
    “When it comes to the greatest rockin' bluesmen in history, at the top of the electrified traditional list is B.B. King; at the top of the contemporary list is Eric Clapton. Riding with The King brings the two...

    Kim Wilde - If I Cant Have You Single (1993 MCA # MCD 30825)


    Kim Wilde - If I Can't Have You
    EAC+LOG+CUE | FLAC: 93 MB | Full Artwork: 16 MB | 5% Recovery Info
    Label/Cat#: MCA # MCD 30825 | Country/Year: Germany 1993
    Genre: Pop, Rock | Style: Pop Rock
    “""If I Can't Have You" is a disco song written by Barry, Robin and Maurice Gibb in 1977. The song initially appeared on the Saturday Night Fever...

    Brian Ferneyhough - Shadowtime (repost)


    Brian Ferneyhough - Shadowtime (repost)
    Classical | EAC: FLAC+Cue+Log | 2 Cd, Covers | 514 Mb
    Label:NMC - Date:2002
    “It's been something like a year now that I've been listening to SHADOWTIME. Though the lyrics are virtually incomprehensible, and though, like most avant "operas" it is wildly over-ambitious, I find that it works on multiple levels,...

    Wynton Marsalis & Eric Clapton - Play The Blues - Live From Jazz At Lincoln Center (CD+DVD) (2011) Repost


    Wynton Marsalis & Eric Clapton - Play The Blues - Live From Jazz At Lincoln Center
    1 CD | EAC Rip | FLAC (Image) + CUE + LOG | HQ scans | 757 MB | 5% Recovery
    Genre: Jazz/Blues | Label: Reprise Jazz | Catalog Number: 8122 79759 0 | Release Date: 2011
    1 DVD | NTSC 16:9 (720x480) VBR (Bitrate: 8.00Mbps; Frame rate: 30.00)
    Audio: English DTS 1536Kbps 5.1, English PCM...

    B.B. King - Love Me Tender (1982) MCA RE-UP


    B.B. King - Love Me Tender (1982)
    EAC rip (secure mode) | FLAC+CUE+LOG + Scans | 245.18 MB
    MCA Records # MCAD-886
    “King traveled to Nashville in the early 1980s and recorded overproduced pop ballads written by the likes of honky tonk angels Conway Twitty, Willie Nelson, and Mickey Newbury. King plays guitar about as often as Perry Como and Tom Jones would have. -- Frank...

    Santana - The Magic Of Santana (2015)


    Santana - The Magic Of Santana
    Blues Rock | MP3 CBR 320 kbps | 67:15 min | 161 MB + 5% Recovery
    Label: Chinese Dragon Music | Tracks: 14 | Rls.date: 2015
    The Magic of Santana are Europe’s premier Santana show, now featuring Original Members of Carlos Santana’s band. This show was the first Tony has ever performed with a Santana “tribute” band, and the first time in over...

    Peter Beets - Chopin meets the blues (2010) Repost


    Peter Beets - Chopin meets the blues (2010)
    EAC Rip | FLAC (image & cue & log) & mp3 @ 320 kbps | tracks: 8 | Scans | 1:00:58 | ~ 368 Mb & 154 Mb
    Label: Criss Cross Jazz (Holland) | 5% recovery record | Jazz, classical, fusion
    The talented Dutch jazz pianist Peter Beets uses Chopin melodies as a basis for jazz improvisations. He teams with three prominent New...

    W.A. Mozart - Staatskapelle Dresden / Quasthoff / Schreier - Krönungsmesse (1993)


    Wolfgang Amadeus Mozart - Krönungmesse, KV 317 / Vesperae Solennes De Confessore, KV 339 / Ave Verum Corpus, KV 618
    Thomas Quasthoff / Rundfunkchor Leipzig / Staatskapelle Dresden / Peter Schreier
    EAC+LOG+CUE | FLAC: 227 MB | Full Artwork | 5% Recovery Info
    Label/Cat#: Philips # 426 275-2 | Country/Year: Germany 1993
    Genre: Classical | Style: Vienesse School, Sacred...

    Tom Ball & Kenny Sultan - Filthy Rich (1993)


    Tom Ball & Kenny Sultan - Filthy Rich (1993)
    EAC Rip | FLAC (Image) + CUE + LOG | MB | + Covers
    Genre: Blues/Country/Bluegrass | Label: Flying Fish | Catalog Number: FF-70619 | Release Date: 1993 | RAR 5% Rec. | RS.com + HF.com
    “Over the years, Tom Ball has worn two different hats equally well. He is an acoustic guitar-playing folk instrumentalist in the John...

EximiousSoft Banner Maker Pro 3.00 Portable
File size: 55.6 MB It is a great application for ceating GIF banner ads. web
Wondershare Video Converter Ultimate 10.0.11.128 Multilingual
File Size: 153 MB Wondershare Video Converter Ultimate is a complete video
TrustViewer 1.4.8 Build 1316 Portable
File Size : 1.5 Mb The program TrustViewer allows you to quickly make a remote
WYSIWYG Web Builder 12.2.1 Portable
File size: 11.3 MB WYSIWYG Web Builder is a WYSIWYG
Hollywood Portraits Hot-Light Techniques for Professional
Lou Szoke, "Hollywood Portraits: Hot-Light Techniques for Professional
Hoist & Haul 2015 Proceedings of the International
Hoist & Haul 2015: Proceedings of the International Conference on Hoisting
Guilty Money The City of London in Victorian and Edwardian
Ranald C Michie, "Guilty Money: The City of London in Victorian and Edwardian
Guidelines for Cloud Seeding to Augment Precipitation (3rd
Guidelines for Cloud Seeding to Augment Precipitation (3rd edition) By Conrad
The Big Bang Theory S11E13 HDTV x264-SVA
The Big Bang Theory S11E13 HDTV x264-SVA Size: 165 MiB | Duration: 00:20:52 |
The Big Bang Theory S11E13 720p HDTV x264-AVS
The Big Bang Theory S11E13 720p HDTV x264-AVS Size: 626 MiB | Duration:
Professor Marston And The Wonder Women 2017 BDRip x264-DRONES
Professor Marston And The Wonder Women 2017 BDRip x264-DRONES Size: 433 MiB |
Professor Marston And The Wonder Women 2017 1080p BluRay
Professor Marston And The Wonder Women 2017 1080p BluRay x264-DRONES Size:

Free Download Resources and Torrent - ChipGFX.

Not Store Any File In Server. The Links Are Provided Solely By This Site's Users.

If You Have Any Doubts About Legality Of Content, Feel Free To Contact US.
© 2015 - 2017