Chip GFX

Free Download Resources and Torrent
    New Download Links
    Speed
     kbps
     kbps
     kbps

    Clarence Gatemouth Brown - Okie Dokie Stomp (1999)

    Category: musics data: 20-12-2015, 20:24
    Rating:
    (votes: 0)

    Clarence 'Gatemouth' Brown - Okie Dokie Stomp (1999)
    EAC Rip | FLAC (Image) + CUE + LOG | Covers | 352 MB
    Genre: Blues/Folk/R&B/Country | Label: Bullseye Blues/Bullseye Blues | Release Date: July 13, 1999 | Catalog Number: BBB 9622
    Hoster: Uploaded + DepositFiles | RAR 5% Rec.

    A budget, 12-song collection taken from Gatemouth's three '80s era Rounder albums with an added bonus of a 10-minute version of "The Drifter," recorded live in Switzerland in 1982. A good starting point for anyone coming to this multi-talented artist.-- by Cub Koda
    -----------------
    Tracklist
    -----------------
    1. Stranded 3:54
    2. Frosty 3:48
    3. I Feel Alright Again 2:34
    4. Sunrise Cajun Style 3:55
    5. Sometimes I Slip 6:37
    6. One More Mile 4:16
    7. The Drifter 10:03
    8. Real Life 3:52
    9. Okie Dokie Stomp 4:13
    10. Information Blues 3:24
    11. Gate Walks To Board 4:03
    12. Dollar Got The Blues 4:48




    EAC LOG
    Exact Audio Copy V1.0 beta 3 from 29. August 2011

    EAC extraction logfile from 26. June 2013, 9:11

    Clarence Gatemouth Brown / Okie Dokie Stomp

    Used drive : HL-DT-STDVDRAM GT30N Adapter: 0 ID: 0

    Read mode : Secure
    Utilize accurate stream : Yes
    Defeat audio cache : Yes
    Make use of C2 pointers : No

    Read offset correction : 103
    Overread into Lead-In and Lead-Out : No
    Fill up missing offset samples with silence : Yes
    Delete leading and trailing silent blocks : No
    Null samples used in CRC calculations : Yes
    Used interface : Native Win32 interface for Win NT & 2000

    Used output format : User Defined Encoder
    Selected bitrate : 1024 kBit/s
    Quality : High
    Add ID3 tag : No
    Command line compressor : C:Program Files (x86)Exact Audio CopyFLACFLAC.EXE
    Additional command line options : -6 -V -T "ARTIST=%artist%" -T "TITLE=%title%" -T "ALBUM=%albumtitle%" -T "DATE=%year%" -T "TRACKNUMBER=%tracknr%" -T "GENRE=%genre%" -T "COMMENT=%comment%" -T "BAND=%albuminterpret%" -T "ALBUMARTIST=%albuminterpret%" -T "COMPOSER=%composer%" %haslyrics%--tag-from-file=LYRICS="%lyricsfile%"%haslyrics% -T "DISCNUMBER=%cdnumber%" -T "TOTALDISCS=%totalcds%" -T "TOTALTRACKS=%numtracks%" %hascover%--picture="%coverfile%"%hascover% %source% -o %dest% TOC of the extracted CD

    Track | Start | Length | Start sector | End sector
    ---------------------------------------------------------
    1 | 0:00.00 | 3:54.45 | 0 | 17594
    2 | 3:54.45 | 3:48.70 | 17595 | 34764
    3 | 7:43.40 | 2:34.70 | 34765 | 46384
    4 | 10:18.35 | 3:55.50 | 46385 | 64059
    5 | 14:14.10 | 6:37.35 | 64060 | 93869
    6 | 20:51.45 | 4:16.45 | 93870 | 113114
    7 | 25:08.15 | 10:03.72 | 113115 | 158411
    8 | 35:12.12 | 3:52.20 | 158412 | 175831
    9 | 39:04.32 | 4:13.08 | 175832 | 194814
    10 | 43:17.40 | 3:24.50 | 194815 | 210164
    11 | 46:42.15 | 4:03.62 | 210165 | 228451
    12 | 50:46.02 | 4:48.10 | 228452 | 250061 Range status and errors

    Selected range

    Filename F:Clarence 'Gatemouth' Brown - Okie Dokie Stomp [FLAC] (1999)Clarence Gatemouth Brown - Okie Dokie Stomp.wav

    Peak level 100.0 %
    Extraction speed 4.6 X
    Range quality 100.0 %
    Copy CRC 3755DFEA
    Copy OK

    No errors occurred


    AccurateRip summary

    Track 1 cannot be verified as accurate (confidence 6) [06335E9A], AccurateRip returned [150ED320] (AR v2)
    Track 2 cannot be verified as accurate (confidence 6) [F6D86B3B], AccurateRip returned [E07CC2B2] (AR v2)
    Track 3 cannot be verified as accurate (confidence 6) [2D604505], AccurateRip returned [122BE8D9] (AR v2)
    Track 4 cannot be verified as accurate (confidence 6) [A8E2062A], AccurateRip returned [C1EE0EB7] (AR v2)
    Track 5 cannot be verified as accurate (confidence 6) [5A43600B], AccurateRip returned [DE53C252] (AR v2)
    Track 6 cannot be verified as accurate (confidence 6) [B0CC25C7], AccurateRip returned [4F9D7098] (AR v2)
    Track 7 cannot be verified as accurate (confidence 6) [3379C85C], AccurateRip returned [C0E8686D] (AR v2)
    Track 8 cannot be verified as accurate (confidence 6) [7BC4C13F], AccurateRip returned [C1972546] (AR v2)
    Track 9 cannot be verified as accurate (confidence 6) [6E29AFCF], AccurateRip returned [64D09240] (AR v2)
    Track 10 cannot be verified as accurate (confidence 6) [04D0BD71], AccurateRip returned [0652814C] (AR v2)
    Track 11 cannot be verified as accurate (confidence 6) [1F0964DD], AccurateRip returned [5ECDF5CF] (AR v2)
    Track 12 cannot be verified as accurate (confidence 6) [635FFC92], AccurateRip returned [8D9CA213] (AR v2)

    No tracks could be verified as accurate
    You may have a different pressing from the one(s) in the database

    End of status report

    ==== Log checksum 1012B3F5CB4410BC7348D755253B577B1141EBE675253F7FB0A8CCDC084062C1 ====


    Dynamic Range Analysis
    foobar2000 1.2.8 / Dynamic Range Meter 1.1.1
    log date: 2013-06-26 09:12:09

    --------------------------------------------------------------------------------
    Analyzed: Clarence Gatemouth Brown / Okie Dokie Stomp
    --------------------------------------------------------------------------------

    DR Peak RMS Duration Track
    --------------------------------------------------------------------------------
    DR12 -0.70 dB -16.11 dB 3:55 01-Stranded
    DR13 0.00 dB -15.90 dB 3:49 02-Frosty
    DR13 0.00 dB -15.76 dB 2:35 03-I Feel Alright Again
    DR12 -0.96 dB -15.62 dB 3:56 04-Sunrise Cajun Style
    DR14 0.00 dB -16.66 dB 6:37 05-Sometimes I Slip
    DR13 -0.10 dB -16.09 dB 4:17 06-One More Mile
    DR12 0.00 dB -16.70 dB 10:04 07-The Drifter
    DR13 0.00 dB -15.61 dB 3:52 08-Real Life
    DR12 0.00 dB -14.45 dB 4:13 09-Okie Dokie Stomp
    DR12 0.00 dB -14.46 dB 3:25 10-Information Blues
    DR13 -0.28 dB -15.99 dB 4:04 11-Gate Walks To Board
    DR12 0.00 dB -14.02 dB 4:48 12-Dollar Got The Blues
    --------------------------------------------------------------------------------

    Number of tracks: 12
    Official DR value: DR13

    Samplerate: 44100 Hz
    Channels: 2
    Bits per sample: 16
    Bitrate: 829 kbps
    Codec: FLAC
    ================================================================================


    In case you encounter dead links in any of my posts, please send me a private message !!!!

    NO mirrors and/or direct links in your comments, please !!!!

    ****Visit My Blog****



    Uploaded

    DepositFiles

    ***** Pass: countryfreak *****


    Free Full Download Clarence Gatemouth Brown - Okie form Torrent Download with keygen, crack, serial, 1080p, hdrip, 720p, 2015, 2016

    Suicide - The Second Album + The First Rehearsal Tapes (1980)


    Suicide - The Second Album + The First Rehearsal Tapes (1980)
    Electronic | 2cd | EAC Rip | Flac + Cue + Log | covers
    Blast First/Mute BFFP162CD | rem: 1999 | 595Mb
    Confusingly released in 1980 as Alan Vega/Martin Rev: Suicide, Mute reissued Suicide's second album as The Second Album in 2000. The reissue adds the "Dream Baby Dream" single, as well as a second...

    Faze Action - To the Sunset & Beyond Vol. 1 (2015)


    Faze Action - To the Sunset & Beyond Vol. 1 (2015)
    Label: FAR (Faze Action) | MP3 320 kbps CBR | 79:41 min | 183 mb
    Downtempo, Chill Out, Disco, Deep House
    While they may have spent the last few years focusing on disco, Italo and electrofunk revivalism, the Lee brothers have released their fair share of deliciously Balearic material over the years. It's this side...

    Chris James & Patrick Rynn - Barrelhouse Stomp (2013)


    Chris James & Patrick Rynn - Barrelhouse Stomp (2013)
    EAC Rip | FLAC (Img) + Cue + Log ~ 429 Mb | MP3 CBR320 ~ 160 Mb
    Scans Included (JPG, 600 dpi) | RAR 5% Recovery
    Chicago Blues | Earwig Music #EARWIG CD 4968
    “Chris James and Patrick Rynn are at the forefront of today’s traditional Blues movement. They've been playing together since 1990, proudly...

    Roy Brown - Pay Day Jump: Later Sessions (2015)


    Roy Brown - Pay Day Jump: Later Sessions
    Blues, R&B, Jazz | MP3 CBR 320 kbps | 67:34 min | 163 MB + 5% Recovery
    Label: Ace Records | Tracks: 24 | Rls.date: 2015
    After an extended break, Ace's King Acetates Series resumes this month with a second compilation by iconic rhythm & blues man Roy Brown. Pay Day Jump focuses predominantly on the sides that Roy cut for...

    Johann Strauss - Die Fledermaus (Richard Bonynge) 1990


    Johann Strauss - Die Fledermaus (Richard Bonynge) [1990]
    PAL 4:3 (720x576) VBR | English (LinearPCM, 2 ch) | 2.93 Gb + 7.15 Gb (DVD5+DVD9)
    Classical | Label: Art Haus | Sub: Deutsch, Francais | +3% Recovery | 197 min
    “ This is a very plush production of Fledermaus from 1990 at Covent Garden that also was Dame Joan Sutherland's farewell to a house in which she...

    Gloria Ann Taylor - Love Is a Hurtin Thing (2015)


    Gloria Ann Taylor - Love Is a Hurtin' Thing (2015)
    Soul, Funk, Disco | MP3 320 kbps | 44:31 | ~102 Mb
    Label: Luv N'Haight | Tracks: 13 | Rls.date: 2015
    Soul singer Gloria Ann Taylor has no rags to riches tale to tell. Her story is one of personal sacrifice, failed relationships, and missed opportunity. She was leading a hard knock life before being swept-up by the...

    Koan - Retrospective Tapes: Liquid Caleidoscope (1997-1999 Selected Works) (2015)


    Koan - Retrospective Tapes: Liquid Caleidoscope (1997-1999 Selected Works) (2015)
    Label: Roeth and Grey Recordings | MP3 320 kbps CBR | 87:14 min | 200 mb
    Chillout, Downtempo, Ambient
    Ethno-chillout / ambient project of two friends from Russia working together since 1993. Beside being highly active in Russia, Koan has chilled numerous international Trance festivals around...

    Charley Jordan - The Essential (2002)


    Charley Jordan - The Essential (2002)
    Blues | MP3 320 kbps CBR | 108 min | 252 MB
    Label: Classic Blues | Rel: 2002
    St. Louis guitarist Charley Jordan was an accomplished sideman, cutting tracks with Memphis Minnie, Roosevelt Sykes, Casey Bill Weldon, Peetie Wheatstraw, Big Joe Williams, and many others during his three-decade career, which began in the 1920s. He was also an...

    Ralph Vaughan Williams - Orchestral Works (1999) 2CD


    Ralph Vaughan Williams - Orchestral Works (1999) 2CD
    Neville Marriner - Barry Wordsworth - Adrian Boult
    EAC | FLAC | Tracks (Cue&Log) ~ 677 Mb (incl 5%) | Mp3 (CBR320) ~ 366 Mb (incl 5%) | Scans included
    Genre: Classical, Orchestral | Label: Decca | # 460 357-2 | Time: 02:25:54
    “This two-CD collection offers a strong, masterfully performed selection of Vaughan...

    Chaka Khan - Dance Classics Of Chaka Khan (1999) Japan WPCR-10085


    Chaka Khan - Dance Classics Of Chaka Khan (1999) [Japan, WPCR-10085]
    R&B, Soul, Club/Dance, Electronic | EAC Rip | FLAC, Img+CUE + LOG + Full Scans-600dpi (JPEG) | 68:17 Min | 542,98 Mb
    Label: Warner Bros. Records (Japan) | Released: 1999, February, 24
    “Dance Classics of Chaka Khan is a compilation album of recordings by American R&B/funk singer Chaka Khan...

EximiousSoft Banner Maker Pro 3.00 Portable
File size: 55.6 MB It is a great application for ceating GIF banner ads. web
Wondershare Video Converter Ultimate 10.0.11.128 Multilingual
File Size: 153 MB Wondershare Video Converter Ultimate is a complete video
TrustViewer 1.4.8 Build 1316 Portable
File Size : 1.5 Mb The program TrustViewer allows you to quickly make a remote
WYSIWYG Web Builder 12.2.1 Portable
File size: 11.3 MB WYSIWYG Web Builder is a WYSIWYG
Hollywood Portraits Hot-Light Techniques for Professional
Lou Szoke, "Hollywood Portraits: Hot-Light Techniques for Professional
Hoist & Haul 2015 Proceedings of the International
Hoist & Haul 2015: Proceedings of the International Conference on Hoisting
Guilty Money The City of London in Victorian and Edwardian
Ranald C Michie, "Guilty Money: The City of London in Victorian and Edwardian
Guidelines for Cloud Seeding to Augment Precipitation (3rd
Guidelines for Cloud Seeding to Augment Precipitation (3rd edition) By Conrad
The Big Bang Theory S11E13 HDTV x264-SVA
The Big Bang Theory S11E13 HDTV x264-SVA Size: 165 MiB | Duration: 00:20:52 |
The Big Bang Theory S11E13 720p HDTV x264-AVS
The Big Bang Theory S11E13 720p HDTV x264-AVS Size: 626 MiB | Duration:
Professor Marston And The Wonder Women 2017 BDRip x264-DRONES
Professor Marston And The Wonder Women 2017 BDRip x264-DRONES Size: 433 MiB |
Professor Marston And The Wonder Women 2017 1080p BluRay
Professor Marston And The Wonder Women 2017 1080p BluRay x264-DRONES Size:

Free Download Resources and Torrent - ChipGFX.

Not Store Any File In Server. The Links Are Provided Solely By This Site's Users.

If You Have Any Doubts About Legality Of Content, Feel Free To Contact US.
© 2015 - 2017